Quick Browse
Movies
TV shows
Music
Games
Applications
Anime
Other

Latest Articles

Friends
Torrents.me
Torrent Download
Movie4u
1337x
RARBG
Full Movies
Torrent Downloads

Verified torrent Super Rakshak (2018) 720p Hindi Dubbed HDRip x264 AAC by Full4movies


    Seeders : 0      Leechers : 0


Note :

Please Update (Trackers Info) Before Downloading Torrents to See Updated Seeders And Leechers for Batter Download Speed.

Trackers List

Tracker NameLast CheckStatusSeedersLeechers




Torrent File Content (1 file)


     Super Rakshak (2018) 720p Hindi Dubbed HDRip x264 AAC by Full4movies.mkv -
1.12 GB



Description



http://photos.filmibeat.com/ph-big/2014/12/rathaavara-first-look-poster_141879326510.jpg


General
Complete name : Super Rakshak (2018) 720p Hindi Dubbed HDRip x264 AAC by Full4movies.mkv
Format : Matroska
Format version : Version 4 / Version 2
File size : 1.12 GiB
Duration : 2 h 3 min
Overall bit rate : 1 293 kb/s
Movie name : www.Full4moveis.co
Encoded date : UTC 2018-06-14 14:06:03
Writing application : mkvmerge v8.1.0 ('Psychedelic Postcard') 32bit
Writing library : libebml v1.3.1 + libmatroska v1.4.2

Video
ID : 1
Format : AVC
Format/Info : Advanced Video Codec
Format profile : [email protected]
Format settings, CABAC : Yes
Format settings, RefFrames : 5 frames
Codec ID : V_MPEG4/ISO/AVC
Duration : 2 h 3 min
Bit rate : 1 152 kb/s
Width : 1 280 pixels
Height : 548 pixels
Display aspect ratio : 2.35:1
Frame rate mode : Constant
Frame rate : 30.000 FPS
Color space : YUV
Chroma subsampling : 4:2:0
Bit depth : 8 bits
Scan type : Progressive
Bits/(Pixel*Frame) : 0.055
Stream size : 1.01 GiB (90%)
Writing library : x264 core 148 r2643 5c65704
Language : Kannada
Default : Yes
Forced : No

Audio
ID : 2
Format : AAC
Format/Info : Advanced Audio Codec
Format profile : LC
Codec ID : A_AAC
Duration : 2 h 3 min
Bit rate : 126 kb/s
Channel(s) : 2 channels
Channel positions : Front: L R
Sampling rate : 44.1 kHz
Frame rate : 43.066 FPS (1024 SPF)
Compression mode : Lossy
Stream size : 111 MiB (10%)
Language : Hindi
Default : Yes
Forced : No

Screen Shoots
http://extraimage.net/images/2018/06/14/b93da4a9b408da69b55e754a7ae67046.jpg

Related torrents

Torrent NameAddedSizeSeedLeechHealth
Verified torrent
9 days ago - in Movies855.22 MB21
Verified torrent
9 days ago - in Movies991.29 MB00
Verified torrent
13 days ago - in Movies1017.14 MB00
Verified torrent
16 days ago - in Movies941.88 MB00
Verified torrent
19 days ago - in Movies986.56 MB10
Verified torrent
25 days ago - in Movies1.08 GB10

Note :

Feel free to post any comments about this torrent, including links to Subtitle, samples, screenshots, or any other relevant information. Please Dont Download anything from Comments, And Dont Post Links to Streaming Sites like Fmovies, Xmovies8, 123Movies, GoMovies, CMovieshd, Solarmovie, Watchfree, Putlockers, GoStream, m4ufree etc.

Comments (0 Comments)




Please login or create a FREE account to post comments

Latest Searches

| avengers infinity war k | latinadultery eva angelina | lamore bugiardo 2014 ita | hajime ippo english | alice in chains dirt 1992 flac | Avengers Infinity War 1080p mkv | FakeAgent NoeMilk Ebony beauty ed hard in casting | dying to live tupac | really 2 chainz | lightroom lomo |