Quick Browse
Movies
TV shows
Music
Games
Applications
Anime
Other

Latest Articles

Friends
Torrents.me
Torrent Download
Movie4u
1337x
RARBG
Full Movies
Torrent Downloads

Verified torrent The Titan (2018) 720p H264 italian english Ac3-5 1 sub ita eng fre spa MIRCrew


    Seeders : 280      Leechers : 39


Note :

Please Update (Trackers Info) Before Downloading Torrents to See Updated Seeders And Leechers for Batter Download Speed.

Trackers List

Tracker NameLast CheckStatusSeedersLeechers
udp://tracker.coppersurfer.tk:6969/announceLast Monthsuccess28039
udp://tracker.pirateparty.gr:6969/announceLast Monthsuccess28039
udp://tracker.leechers-paradise.org:6969/announceLast Monthsuccess11825
udp://eddie4.nl:6969/announceLast Monthsuccess11825
udp://9.rarbg.me:2710/announceLast Monthsuccess11623
udp://9.rarbg.com:2710/announceLast Monthsuccess11623
udp://9.rarbg.to:2740/announceLast Monthsuccess11623
udp://9.rarbg.me:2740/announceLast Monthsuccess11623
udp://9.rarbg.to:2710/announceLast Monthsuccess11623
udp://tracker.opentrackr.org:1337/announceLast Monthsuccess11124
udp://public.popcorn-tracker.org:6969/announceLast Monthsuccess7419
udp://tracker.vanitycore.co:6969/announceLast Monthsuccess7215
udp://ipv4.tracker.harry.lu:80/announceLast Monthsuccess304
udp://mgtracker.org:6969/announceLast Monthsuccess00
udp://asnet.pw:2710/announceLast Monthsuccess00
udp://tracker.cyberia.is:6969/announceLast Monthsuccess00
http://tracker.trackerfix.com/announceLast Monthsuccess00
http://bigfoot1942.sektori.org:6969/announceLast Monthsuccess00
http://announce.torrentsmd.com:6969/announceLast Monthsuccess00
udp://castradio.net:6969/announceLast Monthsuccess00
udp://tracker.zer0day.to:1337/announceLast Monthsuccess00
udp://explodie.org:6969/announceLast Monthsuccess00
http://tracker.opentrackr.org/announceLast Monthsuccess00
udp://tracker.mgtracker.org:2710/announceLast Monthsuccess00
udp://tracker.trackerfix.com:80/announceLast Monthsuccess00
udp://tracker.sktorrent.net:6969/announceLast Monthsuccess00
udp://tracker.x4w.co:6969/announceLast Monthsuccess00
udp://tracker.internetwarriors.net:1337/announceLast Monthsuccess00
udp://tracker.mg64.net:6881/announceLast Monthsuccess00
http://tracker2.wasabii.com.tw:6969/announceLast Monthsuccess00
udp://tracker.pomf.se:80/announceLast Monthsuccess00
udp://p4p.arenabg.com:1337/announceLast Monthsuccess00
udp://p4p.arenabg.ch:1337/announceLast Monthsuccess00
udp://tracker.blackunicorn.xyz:6969/announceLast Monthsuccess00
udp://tracker4.piratux.com:6969/announceLast Monthsuccess00
udp://glotorrents.pw:6969/announceLast Monthsuccess00




Torrent File Content (8 files)


The Titan (2018).720p.H264.ita.eng.sub.ita.eng.fre.spa-MIRCrew
     MIRCrew-ilCorSaRoNeRo.txt -
53 bytes

     The Titan (2018).720p.H264.ita.eng.sub.ita.eng.fre.spa-MIRCrew.eng.srt -
44.58 KB

     The Titan (2018).720p.H264.ita.eng.sub.ita.eng.fre.spa-MIRCrew.fre.srt -
41.5 KB

     The Titan (2018).720p.H264.ita.eng.sub.ita.eng.fre.spa-MIRCrew.ita.srt -
40.47 KB

     The Titan (2018).720p.H264.ita.eng.sub.ita.eng.fre.spa-MIRCrew.mkv -
1.8 GB

     The Titan (2018).720p.H264.ita.eng.sub.ita.eng.fre.spa-MIRCrew.NHeng.srt -
50.07 KB

     The Titan (2018).720p.H264.ita.eng.sub.ita.eng.fre.spa-MIRCrew.spa.srt -
42.33 KB

     The Titan (2018).720p.H264.ita.eng.sub.ita.eng.fre.spa-MIRCrew.srt -
1.06 KB



Description



Movies : Sci-Fi : HD 720p : English
The Titan (2018).720p.H264.italian.english.Ac3-5.1.sub.ita.eng.fre.spa.MIRCrew


NO FOUND ONLY ORIGINAL RELEASE



My release is always in double track audio italian and Original audio
for select it use VLC or dvd player home
not use wmp

The Titan (2018)

Qualità MIRCrew in HD 720p da 1,8 gb







Titolo originale: The Titan
Regia : Lennart Ruff
Nazione: Gran bretagna
Anno: 2018
Genere: Fantascienza
Durata: 97 min circa



Marc-André Grondin, Monia Chokri, Charlotte St-Martin



Rick Janssen, pilota militare, viene scelto per un esperimento teso a dimostrare le possibilità di sopravvivenza umana nelle terribili condizioni ambientali di Titano, uno dei satelliti del pianeta Saturno. L'esperimento riesce trasformando Rick in un super-uomo ma creando effetti.........................



Hotshot Air Force pilot, Rick Janssen (Sam Worthington), is chosen for a military experiment that will create a human being capable of surviving the harsh environments of Saturn's moon, TITAN. The experiment is successful, turning Rick into a super-human, but it also creates deadly side-effects which threatens the life of Rick, his wife and family, and possibly humanity itself.............











[spoiler]
General
Unique ID : 60495418818230509130511208623735910848 (0x2D82FE6D9C5BDEBF77BE1FDE02CD31C0)
Complete name : The Titan (2018).720p.H264.ita.eng.sub.ita.eng.fre.spa-MIRCrewThe Titan (2018).720p.H264.ita.eng.sub.ita.eng.fre.spa-MIRCrew.mkv
Format : Matroska
Format version : Version 2
File size : 1.80 GiB
Duration : 1h 37mn
Overall bit rate : 2 644 Kbps
Encoded date : UTC 2018-04-02T09:39:29Z
Writing application : HandBrake 0.10.5 2016021100
Writing library : Lavf55.12.0

Video
ID : 1
Format : AVC
Format/Info : Advanced Video Codec
Format profile : [email protected]
Format settings, CABAC : Yes
Format settings, ReFrames : 4 frames
Codec ID : V_MPEG4/ISO/AVC
Duration : 1h 37mn
Bit rate : 1 900 Kbps
Width : 1 280 pixels
Height : 528 pixels
Display aspect ratio : 2.40:1
Frame rate mode : Variable
Frame rate : 24.000 fps
Color space : YUV
Chroma subsampling : 4:2:0
Bit depth : 8 bits
Scan type : Progressive
Bits/(Pixel*Frame) : 0.117
Stream size : 1.24 GiB (69%)
Writing library : x264 core 142 r2479 dd79a61
Encoding settings : cabac=1 / ref=3 / deblock=1:0:0 / analyse=0x3:0x113 / me=hex / subme=7 / psy=1 / psy_rd=1.00:0.00 / mixed_ref=1 / me_range=16 / chroma_me=1 / trellis=1 / 8x8dct=1 / cqm=0 / deadzone=21,11 / fast_pskip=1 / chroma_qp_offset=-2 / threads=3 / lookahead_threads=1 / sliced_threads=0 / nr=0 / decimate=1 / interlaced=0 / bluray_compat=0 / constrained_intra=0 / bframes=3 / b_pyramid=2 / b_adapt=1 / b_bias=0 / direct=1 / weightb=1 / open_gop=0 / weightp=2 / keyint=240 / keyint_min=24 / scenecut=40 / intra_refresh=0 / rc_lookahead=40 / rc=abr / mbtree=1 / bitrate=1900 / ratetol=1.0 / qcomp=0.60 / qpmin=0 / qpmax=69 / qpstep=4 / vbv_maxrate=62500 / vbv_bufsize=78125 / nal_hrd=none / filler=0 / ip_ratio=1.40 / aq=1:1.00
Default : Yes
Forced : No
Color primaries : BT.709-5, BT.1361, IEC 61966-2-4, SMPTE RP177
Transfer characteristics : BT.709-5, BT.1361
Matrix coefficients : BT.709-5, BT.1361, IEC 61966-2-4 709, SMPTE RP177

Audio #1
ID : 2
Format : AC-3
Format/Info : Audio Coding 3
Mode extension : CM (complete main)
Codec ID : A_AC3
Duration : 1h 37mn
Bit rate mode : Constant
Bit rate : 384 Kbps
Channel(s) : 6 channels
Channel positions : Front: L C R, Side: L R, LFE
Sampling rate : 48.0 KHz
Bit depth : 16 bits
Compression mode : Lossy
Delay relative to video : 1mn 5s
Stream size : 268 MiB (15%)
Title : Surround
Language : Italian
Default : Yes
Forced : No

Audio #2
ID : 3
Format : AC-3
Format/Info : Audio Coding 3
Mode extension : CM (complete main)
Codec ID : A_AC3
Duration : 1h 37mn
Bit rate mode : Constant
Bit rate : 384 Kbps
Channel(s) : 6 channels
Channel positions : Front: L C R, Side: L R, LFE
Sampling rate : 48.0 KHz
Bit depth : 16 bits
Compression mode : Lossy
Delay relative to video : 1mn 5s
Stream size : 268 MiB (15%)
Title : Surround
Language : English
Default : No
Forced : No



[/spoiler]


Related torrents

Torrent NameAddedSizeSeedLeechHealth
Verified torrent
3 months ago - in Movies2.26 GB598
Verified torrent
2 months ago - in Movies1.68 GB513
Verified torrent
10 months ago - in Movies3.46 GB125438
1 Year+ - in Movies1.73 GB00
Verified torrent
1 Year+ - in Movies4.38 GB00
Verified torrent
4 months ago - in Movies1.68 GB14251

Note :

Feel free to post any comments about this torrent, including links to Subtitle, samples, screenshots, or any other relevant information. Please Dont Download anything from Comments, And Dont Post Links to Streaming Sites like Fmovies, Xmovies8, 123Movies, GoMovies, CMovieshd, Solarmovie, Watchfree, Putlockers, GoStream, m4ufree etc.

Comments (0 Comments)




Please login or create a FREE account to post comments

Latest Searches

| asa akira starstruck 2 | Alphabet of Karaoke Letter M Vol 1 | The Plot Against America 2018 | korg pa m | 2015 club tracks | Goddess Christina | ibiza party 2018 | Cobblestone | guide to design thinking | nina elle fooling the family |